Gay of Thrones

Gay of Thrones

Full description

Game of Thrones S04E04 1080i HDTV MPEG2 DD5.1-CtrlHD[rartv]

Size 5.771 GB   0 seeders     Added 2016-10-23 18:28:24

Format : MPEG-TS
File size : 5.37 GiB
Duration : 57mn 18s
Overall bit rate mode : Variable
Overall bit rate : 13.4 Mbps

Video
ID : 33 (0x21)
Menu ID : 1 (0x1)
Format : MPEG Video
Format version : Version 2
Format profile : [email protected]
Format settings, BVOP : Yes
Format settings, Matrix : Default
Format settings, GOP : Variable
Codec ID : 2
Duration : 57mn 18s
Bit rate mode : Variable
Bit rate : 12.4 Mbps
Maximum bit rate : 38.8 Mbps
Width : 1 920 pixels
Height : 1 080 pixels
Display aspect ratio : 16:9
Frame rate : 29.970 fps
Color space : YUV
Chroma subsampling : 4:2:0
Bit depth : 8 bits
Compression mode : Lossy
Bits/(Pixel*Frame) : 0.199
Stream size : 4.95 GiB (92%)

Audio
ID : 36 (0x24)
Menu ID : 1 (0x1)
Format : AC-3
Format/Info : Audio Coding 3
Mode extension : CM (complete main)
Format settings, Endianness : Big
Codec ID : 129
Duration : 57mn 18s
Bit rate mode : Constant
Bit rate : 384 Kbps
Channel(s) : 2 channels
Channel positions : Front: L R
Sampling rate : 48.0 KHz
Bit depth : 16 bits
Compression mode : Lossy
Stream size : 157 MiB (3%)
Language : English

Text #1
ID : 33 (0x21)-1
Menu ID : 1 (0x1)
Format : EIA-708
Muxing mode : A/53 / DTVCC Transport
Muxing mode, more info : Muxed in Video #1
Duration : 57mn 18s
Bit rate mode : Constant
Stream size : 0.00 Byte (0%)

Text #2
ID : 33 (0x21)-2
Menu ID : 1 (0x1)
Format : EIA-708
Muxing mode : A/53 / DTVCC Transport
Muxing mode, more info : Muxed in Video #1
Duration : 57mn 18s
Bit rate mode : Constant
Stream size : 0.00 Byte (0%)

Screens:
Game of Thrones S04E04 1080i HDTV MPEG2 DD5.1-CtrlHD[rartv]/Game of Thrones S04E04 1080i HDTV MPEG2 DD5.1-CtrlHD.ts 5.771 GB
Game of Thrones S04E04 1080i HDTV MPEG2 DD5.1-CtrlHD[rartv]/RARBG.com.txt 34 B
Game of Thrones S04E04 1080i HDTV MPEG2 DD5.1-CtrlHD[rartv]/Game of Thrones S04E04 1080i HDTV MPEG2 DD5.1-CtrlHD.ts 5.771 GB
Gathering some info...

Register and log in Isohunt and see no captcha anymore!

4000 symbols left
Hash 82a9b98d5add9061e535addec55b7707f071e12d

Related torrents for "Game of Thrones S04E04 1080i HDTV MPEG2 DD5.1-CtrlHD[rartv]"

Torrent search:

season 04 hdtv episode 04