Bunkd (Bunk'd) S01E19 Bride and Doom iTunes 1080p-DCMagic

Size 980.646 MB   3 seeders     Added 2016-05-01 19:04:02

Bunk'd:
---------------------------------------------------------------

About this episode: The campers learn about Olga, the daughter of
the camp founder who supposedly haunts the camp. When mysterious
events start to occur, the counselors wonder if she's real!
---------------------------------------------------------------

Video
ID : 1
Format : AVC
Format/Info : Advanced Video Codec
Format profile : [email protected]
Format settings, CABAC : Yes
Format settings, ReFrames : 4 frames
Codec ID : avc1
Codec ID/Info : Advanced Video Coding
Duration : 23mn 6s
Bit rate : 5 112 Kbps
Width : 1 920 pixels
Height : 1 080 pixels
Display aspect ratio : 16:9
Frame rate mode : Constant
Frame rate : 23.976 (24000/1001) fps
Color space : YUV
Chroma subsampling : 4:2:0
Bit depth : 8 bits
Scan type : Progressive
Bits/(Pixel*Frame) : 0.103
Stream size : 845 MiB (90%)
Title : Core Media Video
Language : English
Encoded date : UTC 2016-04-28 02:54:57
Tagged date : UTC 2016-04-28 02:55:10
Color range : Limited
Color primaries : BT.709
Transfer characteristics : BT.709
Matrix coefficients : BT.709
Audio #1
ID : 2
Format : AAC
Format/Info : Advanced Audio Codec
Format profile : LC
Codec ID : 40
Duration : 23mn 6s
Source duration : 23mn 6s
Bit rate mode : Variable
Bit rate : 160 Kbps
Maximum bit rate : 259 Kbps
Channel(s) : 2 channels
Channel positions : Front: L R
Sampling rate : 48.0 KHz
Frame rate : 46.875 fps (1024 spf)
Compression mode : Lossy
Stream size : 25.9 MiB (3%)
Source stream size : 25.9 MiB (3%)
Title : Core Media Audio
Language : English
Default : Yes
Alternate group : 1
Encoded date : UTC 2016-04-28 02:54:57
Tagged date : UTC 2016-04-28 02:55:10
Fallback From : 4
Audio #2
ID : 4
Format : AC-3
Format/Info : Audio Coding 3
Mode extension : CM (complete main)
Format settings, Endianness : Big
Codec ID : ac-3
Duration : 23mn 6s
Bit rate mode : Constant
Bit rate : 384 Kbps
Channel(s) : 6 channels
Channel positions : Front: L C R, Side: L R, LFE
Sampling rate : 48.0 KHz
Frame rate : 31.250 fps (1536 spf)
Bit depth : 16 bits
Compression mode : Lossy
Stream size : 63.5 MiB (7%)
Title : Core Media Audio
Language : English
Default : Inherited From: 2
Alternate group : 1
Encoded date : UTC 2016-04-28 02:54:57
Tagged date : UTC 2016-04-28 02:55:10
Fallback To : 2
Text
ID : 3-CC1
Format : EIA-608
Muxing mode : Final Cut
Codec ID : c608
Duration : 23mn 1s
Bit rate mode : Constant
Stream size : 0.00 Byte (0%)
Title : Core Media Closed Caption
Language : English
Forced : No
Encoded date : UTC 2016-04-28 02:54:57
Tagged date : UTC 2016-04-28 02:55:10
---------------------------------------------------------------

Screenshots:
Bunkd.S01E19.Bride.and.Doom.iT1080p.DCMagic.m4v 980.646 MB
Gathering some info...

Register and log in Isohunt and see no captcha anymore!

4000 symbols left
Hash 9367ddf6fd64ac59bc121a5cb97bf99320f0878a